#TITLE:Fight With Seymour;
#SUBTITLE:Final Fantasy X;
#ARTIST:The Black Mages;
#TITLETRANSLIT:;
#SUBTITLETRANSLIT:;
#ARTISTTRANSLIT:;
#CREDIT:;
#BANNER:seymour-banner.png;
#BACKGROUND:seymour-bg.png;
#LYRICSPATH:;
#CDTITLE:Mus1c.png;
#MUSIC:seymour.mp3;
#OFFSET:-0.300;
#SAMPLESTART:105.000;
#SAMPLELENGTH:12.000;
#SELECTABLE:YES;
#BPMS:0.000=129.980,502.000=64.990,518.000=129.980;
#STOPS:;
#BGCHANGES:;
// cache tags:
#FIRSTBEAT:0.500;
#LASTBEAT:634.500;
#SONGFILENAME:Songs/nhac/Fight With Seymour/steps.sm;
#HASMUSIC:1;
#HASBANNER:1;
#MUSICLENGTH:305.397;
// end cache tags

//---------------dance-single - ----------------
#NOTES:
     dance-single:
     :
     Hard:
     10:
     0.773,1.000,0.678,0.583,0.714,1268.000,207.000,178.000,0.000,44.000:
0000
2001
0000
0000
0000
0000
0000
0000
,
0000
3102
0000
0000
0000
0000
0000
0000
,
0000
2103
0000
0000
0000
0000
0000
0000
,
0000
3120
0000
0000
0000
0000
0000
0000
,
0000
0231
0000
0000
0000
0000
0000
0000
,
0000
2301
0000
0000
0000
3102
0000
0000
,
0000
0213
0000
0000
0000
0000
0000
0000
0000
0000
0000
0000
0000
0000
0000
0000
,
0000
0000
0000
0000
0000
0000
0000
0000
0000
0000
0000
0000
0000
0000
0000
0300
0000
0001
0010
0100
2000
0000
0000
0000
,
3110
0000
0101
0000
1100
0000
0101
0011
0000
0011
0101
0000
2100
0000
3102
0000
,
1103
0000
0011
0000
0101
0000
1100
0011
0000
0011
0000
0101
0202
0000
0303
0000
,
1100
0000
0011
0000
1010
0000
1100
1001
0000
1001
1100
0000
2010
0000
3012
0000
,
1013
0000
0101
0000
0011
0000
0110
0101
0000
0101
0000
0110
0220
0000
0330
0000
,
0010
1000
0000
1000
0000
1000
0000
1000
0000
0100
0010
0000
0001
0000
0000
0000
,
1000
0001
0000
0001
0000
0001
0000
0001
0000
0010
0100
0000
1000
0000
0000
0000
,
1000
0010
0000
0010
0000
0010
0000
0010
0000
0100
0001
0000
0010
0000
0000
0000
,
1000
0100
0010
0001
0010
0100
1000
0100
0010
0001
0010
0100
1000
0100
0010
0001
,
1000
0001
0000
0010
0000
0100
0000
1000
0000
0100
0001
0000
0100
0000
0000
0000
,
0100
0010
0000
0010
0000
0010
0000
0010
0000
0010
1000
0000
0100
0000
0000
0000
,
1000
0100
0000
0100
0000
0100
0000
0100
0000
0100
1000
0000
0001
0000
0000
0000
,
0100
0000
0000
1000
0000
0000
0100
0000
0000
1000
0000
0000
0010
0000
0000
1000
0000
0000
0010
0000
0000
1000
0000
0000
0001
0000
0000
1000
0000
0000
0001
0000
0010
0000
0100
0000
1000
0000
0001
0000
0010
0000
0100
0000
1000
0000
0100
0000
,
1001
0100
0010
0100
0010
0001
0010
0100
1000
0001
0010
0100
1000
0100
0010
0001
,
0100
0010
0001
0010
0100
0010
1000
0001
0010
0100
1000
0010
0100
0001
1000
0100
,
0002
0000
0000
0000
0003
0000
1100
0011
0000
0110
0000
0011
1001
0000
0110
0000
,
0022
0000
0000
0000
0033
0000
1100
0101
0000
1010
0000
0110
2002
0000
3003
0000
,
0000
0000
1000
0100
1000
0100
0010
0001
1000
0100
0010
0001
0010
0100
1000
0100
,
0001
0000
0001
0010
0000
1000
0010
0100
0001
0000
0001
1000
0000
0001
0100
0010
,
2000
3002
0203
0320
,
2030
3002
0203
2302
,
3103
0000
0001
0000
0010
0000
0100
1000
0000
1000
0100
0000
0010
0000
0001
0000
,
0010
0000
0001
0000
0100
0000
1000
0001
0000
0001
1000
0000
0100
0000
0010
0000
,
1010
0010
0101
0100
0011
0001
1100
1000
,
0110
0001
0011
0100
1001
0010
1100
0000
,
0010
0000
1000
0000
0100
0000
0010
0001
0000
0001
0010
0000
0100
0000
1000
0000
,
0100
0000
1000
0000
0010
0000
0001
1000
0000
1000
0001
0000
0010
0000
0100
0000
,
1000
0100
0010
0001
1000
0100
0010
0001
1000
0100
0010
0001
1000
0100
0010
0001
,
0001
0010
0100
1000
0001
0010
0100
1000
0001
0010
0100
1000
0001
0010
0100
1000
,
0100
0000
0010
0000
1000
0000
0100
0001
0000
0001
0100
0000
1000
0000
0010
0000
,
1000
0000
0010
0000
0100
0000
0001
0010
0000
0010
0001
0000
0100
0000
1000
0000
,
0020
1000
1000
1000
,
2030
0001
3002
0100
,
0203
1000
0001
1000
,
2300
0000
0100
0000
0100
0000
3200
0320
,
0032
0010
0010
0010
,
2003
0100
3020
0001
,
0032
1000
0100
0100
,
0203
0001
0001
0001
,
1302
0100
0100
0100
,
2103
0100
3021
0001
,
1032
0010
0100
1000
,
2013
0000
0100
0000
0001
0000
3012
1203
,
0321
1000
0001
1000
,
2032
0000
0000
3003
0220
0000
0000
0330
,
0202
0000
0000
0000
0000
0000
0000
0303
,
2020
0000
0000
0000
0000
3030
1001
1010
,
1000
0000
0010
0000
0100
0000
1000
0001
0000
0001
1000
0000
0101
0000
1010
0000
,
0100
0000
0010
0000
1000
0000
0001
0010
0000
0010
0001
0000
1010
0000
0101
0000
,
1000
0000
0010
0000
0100
0000
1000
0001
0000
0001
1000
0000
0101
0000
1010
0000
,
0100
0000
0010
0000
1000
0000
0001
0010
0000
0010
0001
0000
1100
0000
0101
0000
,
1000
0000
0010
0000
0100
0000
1000
0001
0000
0001
1000
0000
0101
0000
1010
0000
,
0100
0000
0010
0000
1000
0000
0001
0010
0000
0010
0001
0000
1010
0000
1100
0000
,
0001
0000
0010
0000
0100
0000
0001
1000
0000
1000
0001
0000
0101
0000
0110
0000
,
0100
0000
0010
0000
0001
0000
1000
0010
0000
0010
1000
0000
1001
0000
0101
0000
,
0001
0000
0010
0000
0100
0000
0001
1000
0000
1000
0001
0000
1100
0000
0011
0000
,
0100
0000
0010
0000
0001
0000
1000
0010
0000
0010
1000
0000
0001
0000
0100
0000
,
0101
0000
1010
0000
0101
0000
0001
1000
0000
1000
0001
0000
1100
0000
0011
0000
,
1100
0000
0110
0000
0011
0000
1000
0010
0000
0010
1000
0000
1001
0000
0110
0000
,
0011
0000
0101
0000
1100
0000
0001
1000
0000
1000
0001
0000
0110
0000
1010
0000
,
0101
0000
0110
0000
0011
0000
1000
0010
0000
0010
1000
0000
0001
0010
0001
0010
,
0100
0000
1000
0001
0000
1000
0001
0000
1000
0001
0000
1000
0001
0000
1000
0000
,
0001
0000
1000
0001
0000
1000
0001
0000
1000
0001
0000
1000
0001
0000
1000
0000
,
0001
0000
1000
0010
0000
0100
0001
0000
0010
0100
0000
1000
0001
0000
0100
0000
,
1000
0000
0010
0100
0000
0100
0001
0000
0100
1000
0000
0010
0001
0000
0100
0000
,
0001
0000
0100
0010
0000
0010
0100
0000
1000
0001
0000
1000
0001
0000
0100
0000
,
0001
0000
0010
0100
0000
0001
0100
0000
0010
1000
0000
0100
0010
0000
0010
0000
,
0001
0000
1000
0010
0000
0100
0001
0000
0010
0100
0000
1000
0001
0000
0100
0000
,
1000
0000
0010
0001
0010
0000
0100
0010
0100
0000
0100
0000
0100
0000
0100
0000
,
0100
0000
0100
0000
0000
0100
0000
0000
0010
0000
1000
0010
0000
0000
0001
0000
,
1000
0001
0000
0000
0001
0000
0001
0000
1000
0001
0000
0000
0100
0000
0100
0000
,
0000
0010
0000
0000
0100
0000
0010
0001
0000
0000
1000
0000
0001
0010
0000
0000
,
1000
0000
0001
0000
0100
0010
0000
0000
0100
0000
0001
0000
0000
0100
0000
0000
,
0010
0000
1000
0010
0000
0000
0010
0000
0001
1000
0000
0000
0100
0000
0100
0000
,
0100
0001
0000
0000
0100
0000
0100
0000
0000
0010
0000
0000
0100
0000
0010
0001
,
0000
0000
1000
0000
0001
0100
0000
0000
0010
0000
0010
0000
1000
0001
0000
0000
,
2000
3002
0203
2300
,
3002
0203
2300
3020
,
0032
0000
0000
0000
1000
0000
0100
0100
0000
0000
1000
0000
0100
0100
0000
0000
,
0010
0000
0010
0000
1000
1000
0000
0000
2003
0000
0000
0000
3002
0000
0000
0000
,
0203
0320
2030
3002
,
0203
0000
0000
0000
2300
0000
0000
0000
3002
0000
0000
0000
0010
0000
1000
1000
,
0000
0000
0100
0000
0010
0010
0000
0000
1000
0000
1000
0000
0100
0100
0000
0000
,
2003
3020
0032
2003
,
3020
0032
2003
3200
,
0320
0000
0000
0000
1000
0000
0001
0001
0000
0000
1000
0000
0001
0001
0000
0000
,
0100
0000
0100
0000
1000
1000
0000
0000
2230
0000
3300
0000
0022
0000
0033
0000
,
0220
0330
2020
3030
0202
0303
0220
0330
,
2020
0000
3030
0000
0202
0000
0303
0000
1001
0000
0010
0000
1001
0000
0100
0010
,
0000
0010
0100
0000
1001
0000
0010
0000
1001
0000
0010
0000
1001
0000
0100
0010
,
0000
0010
0100
0000
1001
0000
0010
0000
1001
0000
0100
0000
1001
0000
0010
0000
,
1001
0010
1001
0100
1001
0100
1001
0100
,
1001
0000
0110
0000
1001
0000
0000
0000
1000
0100
1000
0100
1000
0010
1000
0100
,
1000
0010
1000
0001
1000
0001
1000
0001
1000
0010
1000
0100
1000
0001
0100
0010
,
0100
0010
0100
0001
0100
1000
0100
0010
0002
0000
0000
0000
0003
0000
1000
0001
,
0000
1000
0000
0001
1000
0000
0010
0000
2200
0000
0000
0000
3300
0000
0010
0001
,
0000
0100
0000
0010
2200
0000
3300
0000
0000
0000
1000
0010
1000
0010
0100
0010
,
1000
0010
0100
0010
1000
0100
0010
0100
1000
0000
0100
0010
0000
0001
1000
0001
,
1000
0000
0100
0010
0000
0001
0010
0100
2000
0000
0000
0000
3002
0000
0000
0000
,
2003
3022
2233
3302
,
0023
0230
2302
0000
,
0000
0000
0000
0000
3203
0000
0320
0032
0023
0000
0000
0000
0000
0000
0000
0000
,
0000
0000
0000
0000
0000
0000
0000
0000
1100
0030
1000
0000
1001
0000
0001
0000
,
1001
1000
1010
0010
0110
0100
0101
0001
,
1001
0000
1000
0000
1100
0000
0000
0000
0100
0000
1000
0000
0100
0000
0010
0001
,
0000
0001
0010
0000
0100
0000
1000
0000
0100
0000
1000
0000
0010
0000
0001
1000
,
0000
1000
0001
0000
0010
0000
0100
0000
2000
0000
0000
0000
0001
0000
0000
0000
,
3002
1000
0203
0001
,
0320
0000
0000
0000
1000
0000
0000
0000
1030
0000
0001
0000
1000
0000
0010
0100
,
0000
0100
0010
0000
1000
0000
0010
0000
1000
0000
0001
0000
0200
0300
2000
3000
,
0200
0300
0002
0003
0020
0030
0200
0300
1000
0100
0010
1000
0100
0010
1000
0100
,
0010
0001
0010
0100
0001
0010
0100
0001
0010
0100
1000
0010
0100
0010
0100
0010
,
0100
1000
0100
0001
0010
1000
0100
0010
1000
0001
1000
0100
0010
0001
0100
0010
,
0001
0010
1000
0001
0100
0001
0100
0001
0100
1000
0100
0001
0010
0100
0001
0100
,
0010
1000
0010
1000
0001
0100
0010
1000
0001
0010
1000
0001
,
1000
0010
0001
1000
0001
0100
1000
0100
0100
0001
0100
0010
,
1000
0100
0100
1000
0001
0001
0010
1000
0100
0001
0100
0010
,
1000
0100
0001
0100
1000
0001
0100
1000
0011
0100
1100
0001
,
0001
0000
1000
0000
0100
0000
0010
0000
0000
0000
0000
0000
0000
0000
0000
0000
0022
0000
0000
0000
0000
0000
0000
0000
1033
0000
0000
0001
0000
0000
0010
0000
,
0001
0000
0000
0000
0000
0000
0000
0000
1000
0000
0000
0000
0000
0000
0000
0000
1001
0000
0000
0000
0000
0000
0000
0000
0010
0000
0000
0001
0000
0000
0100
0000
,
1001
0000
0000
0000
0000
0000
0000
0000
0010
0000
0000
0000
0000
0000
0000
0000
1001
0000
0000
0000
0000
0000
0000
0000
0100
0000
0000
1000
0000
0000
0001
0000
,
1000
0000
0000
0000
0000
0000
0100
0000
0000
0000
0000
0000
1000
0001
0100
0010
1000
0001
0100
0010
1000
0001
1000
0001
,
0100
0000
0010
0000
1000
0000
0001
0000
0100
0000
1000
0000
1000
0000
0000
0010
0000
0000
0000
0000
0000
1000
0000
0000
1001
0000
0000
0000
0000
0000
0010
0000
0000
0000
0000
0000
0100
0000
0000
1000
0000
0000
0001
0000
0000
1000
0000
0000
,
0100
0010
1000
0001
0200
0000
0000
0000
1300
0100
0010
1000
0010
0100
0001
0100
,
0010
1000
0001
0100
0001
0100
0001
0100
1000
0010
1000
0010
0001
0100
0010
0100
,
2000
3002
0203
0320
0230
0000
0000
0000
,
0300
0000
0100
0000
0011
0000
0010
0000
2002
0000
0000
3223
0000
0300
2230
0000
,
3322
0000
0000
0000
0000
0000
0033
0010
0022
0000
0000
2233
0000
0000
3322
0000
,
2233
0000
0000
0000
0000
0000
0000
0000
3300
0000
1000
0000
0100
0010
0001
1000
,
0001
1000
0010
1000
0010
1000
0001
1000
0200
0000
0000
0000
0000
0000
0000
0000
,
1300
0001
0100
0001
0100
0001
0010
0100
1000
0001
0100
0010
,
0020
0000
0000
0032
0000
0000
0000
0000
0000
0000
0000
0000
1003
0000
0001
0000
0100
0000
0010
0000
0001
0000
0010
0000
,
0100
1000
0001
0100
0010
1000
0100
0010
0001
1000
0100
1000
,
0100
0001
0010
0100
0001
0100
0022
0000
0000
0000
0000
0000
,
2233
0000
3322
0003
2032
0000
0000
0000
,
0000
0000
0000
3000
2023
0030
3220
0030
,
0322
0000
0030
0000
2023
0000
0030
0000
3001
0000
0100
1000
0000
1000
0010
0000
,
0001
0100
0000
1000
0100
0000
0001
0000
0010
0000
0100
0001
0000
0100
1000
0000
,
0010
0001
0000
1000
1000
0000
0010
0000
0010
0000
0001
0010
0000
0010
0001
0000
,
0010
0100
0000
0100
0010
0000
1000
0000
1000
0001
1000
0000
0010
0100
0010
0000
,
0001
0010
0001
0000
0100
0010
0100
0000
1000
0000
0010
0010
0000
0100
0001
0000
,
1000
0001
0000
0100
0010
0000
1000
0000
0100
0000
0001
0100
0000
1000
0001
0000
,
0100
0100
0000
1000
0001
0000
0001
0000
0100
0000
0001
0100
0000
0100
0010
0000
,
0001
0100
0000
0100
0001
0000
0100
0000
0100
0010
0100
0010
0100
0010
0100
0010
,
0100
0010
0100
0010
0100
0010
0100
0010
0110
0000
0110
0000
0000
0000
0011
0000
,
1100
0000
0010
0001
0000
0000
1100
0000
0001
0010
0000
0000
0011
0000
1001
0000
,
1000
0100
0000
0000
1000
0000
0001
0000
0000
0000
0010
0000
0100
0000
0001
0010
,
0000
0000
1000
0000
0001
0100
0000
0000
1000
0000
0001
0000
1000
0001
0000
0000
,
0011
0000
0011
0000
0000
0000
1001
0000
0110
0000
1001
1001
0000
0000
0110
0000
,
1001
1001
0000
0000
1001
0000
1100
0000
0110
0110
0000
0000
0101
0000
0110
0000
,
0000
0000
1001
0000
0110
0000
1001
1001
0000
0000
0101
0000
1010
1010
0000
0000
,
1100
0000
1010
0000
1001
2002
0000
0000
0000
0000
3003
0000
0000
0000
0000
0000
;
